Home| All Soft| Last Soft| Download Status| Customers opinion| Support| Cart

Program Search:

Shopping Cart:




*Note: Minimum order price: €20
We Recommend:
Todd Brown - Mentor to a Million €30 buy download
× Todd Brown - Mentor to a Million Close
Todd Brown - Mentor to a Million
WEBRip | English | MP4 + PDF Guides | 640 x 360 | AVC ~233 kbps | 25 fps
AAC | 90.4 Kbps | 44.1 KHz | 2 channels | ~70 hours | 15.15 GB
Genre: eLearning Video / Business, Sales, Marketing
YES, Todd! I am totally excited to watch my business grow to $100,000.00 a month and beyond with your coaching, guidance, instruction, and partnership. I understand I get access to a new Mentoring Video Module every month!I understand I get to have you review, critique, and give feedback on one area of my business/marketing every single month!
I understand I will have Todd answer all my questions, every week, about running and growing my business on a live Group Q&A Call every Friday.
I understand Todd and I will get on the phone every month for a Private One-On-One Consultation to keep my business moving forward every 30 days.
I am totally willing to commit to a full-year of the program to have you bring my business to $100,000.00+ a month.
I recognize it is a no-brainer to pay you the $7,860.00 you’re giving me toward my enrollment today, only after my business exceeds $100,000.00 three months in a row!

also You can find my other helpful Business-posts
(if old file-links don't show activity, try copy-paste them to the address bar)

MediaInfo: General
Complete name : Video3.mp4
Format : MPEG-4
Format profile : Base Media
Codec ID : isom (isom/iso2/avc1/mp41)
File size : 203 MiB
Duration : 1 h 26 min
Overall bit rate mode : Variable
Overall bit rate : 327 kb/s
Season : 0


Video
ID : 1
Format : AVC
Format/Info : Advanced Video Codec
Format profile : Baseline@L1.3
Format settings : 1 Ref Frames
Format settings, CABAC : No
Format settings, RefFrames : 1 frame
Format settings, GOP : M=1, N=12
Codec ID : avc1
Codec ID/Info : Advanced Video Coding
Duration : 1 h 26 min
Bit rate : 233 kb/s
Width : 640 pixels
Height : 360 pixels
Display aspect ratio : 16:9
Frame rate mode : Constant
Frame rate : 25.000 FPS
Color space : YUV
Chroma subsampling : 4:2:0
Bit depth : 8 bits
Scan type : Progressive
Bits/(Pixel*Frame) : 0.040
Stream size : 144 MiB (71%)
Encoded date : UTC 2017-09-23 14:48:36
Tagged date : UTC 2017-09-23 14:48:36
Menus : 3

Audio
ID : 2
Format : AAC
Format/Info : Advanced Audio Codec
Format profile : LC
Codec ID : mp4a-40-2
Duration : 1 h 26 min
Bit rate mode : Variable
Bit rate : 90.4 kb/s
Maximum bit rate : 112 kb/s
Channel(s) : 2 channels
Channel positions : Front: L R
Sampling rate : 44.1 kHz
Frame rate : 43.066 FPS (1024 SPF)
Compression mode : Lossy
Stream size : 56.0 MiB (28%)
Encoded date : UTC 2017-09-23 14:48:36
Tagged date : UTC 2017-09-23 14:48:36

Menu
ID : 3
Codec ID : text
Duration : 1 h 26 min
Encoded date : UTC 2017-09-24 14:41:55
Tagged date : UTC 2017-09-24 14:41:55
Menu For : 1
00:00:00.000 : Chapter 1 Screenshots
× Todd Brown - Mentor to a Million Close
× Todd Brown - Mentor to a Million Close
× Todd Brown - Mentor to a Million Close
× Todd Brown - Mentor to a Million Close
× Todd Brown - Mentor to a Million Close
✅ Exclusive eLearning Videos ParRus-blog ← add to bookmarks
Feel free to contact me PM
when links are dead or want any repost
× Todd Brown - Mentor to a Million Close



Download File Size:14.54 GB


Todd Brown - Mentor to a Million
€30
Customers who bought this program also bought:
  • Solidworks Audi TT Video €15
  • Digital Tutors Creating Quick Sketch Models in SolidWorks €20
  • Digital Tutors Modeling Options for Sketching Features and Assemblies in SolidWorks €15
  • Lynda.com Sheet Metal Design with SolidWorks €15
  • Adobe Photoshop 2020 21.0.3.91 x64 Multilingual Portable with plugins and Camera Raw profiles €110
  • SolidWorks 2021 SP5.0 €115

  • Home| All Programs| Today added Progs| Download Status| Customers opinion| Helpdesk| Shopping cart      





    AutoCAD 2023 €110


    SolidWorks 2022 €115


    AutoCAD 2023 for Mac €110






    Intuit QuickBooks Enterprise Solutions 2021 €40


    Mindjet MindManager 2022 €22


    Chief Architect Premier X13 €50






    FileMaker Pro 19 €50


    Pinnacle Studio Ultimate 25 €25


    CorelDRAW Graphics Suite 2022 €65