Home| All Programs| Today added Progs| Download Status| Customers opinion| Helpdesk| Shopping cart

Program Search:

Shopping Cart:




*Note: Minimum order cost: €20
Maximum Total Price: €1500
We Recommend:
Anthony Aires - Blog And Prosper €20 buy download

× Anthony Aires - Blog And Prosper Close
Anthony Aires - Blog And ProsperWEBRip | English | MP4 + PDF Guides | 1280 x 720 | AVC ~460 Kbps | 30 fps
AAC | 126 Kbps | 44.1 KHz | 2 channels | ~12 hours | 2.48 GBGenre: eLearning Video / Business, Sales, Marketing
The Only Blogging System On The Planet That Teaches You How A 43 Year Old Family Man From Orlando Makes More Than Doctors or legal representatives Working Only 90 Minutes A Day On His Laptop From Anywhere In The WorldI desire you to introduce a blog site for me that I’m enthusiastic without putting me through tech overwhelm about so that I can deal with include content to it so that it will make sales like insane utilizing your blog site success design templates and traffic getting approaches so I can get FAST targeted traffic. When you come on board and flourish and end up being a blog site member you’ll be getting total and instantaneous in depth access to my whole Proprietary 4 week Blog and Prosper system.
Here’s What You Get!

Week 1: How to choose your specific niche and brainstorm ENDLESS popular material concepts so you can construct a blog site that works for you 24/ 7 passively generating earnings as you continue to contribute to it and grow it.

Week 2: Build your blog site by producing your material or outsourcing it for less than $5 so you do not get slowed down by doing mind numbing work and rather can go take pleasure in doing what you enjoy the majority of.

Week 3: Bring in your visitors through seo, viral marketing, material syndication, traffic siphons so you can begin to make sales like insane.

Week 4: Boost your earnings by including and optimizing offered earnings streams so you can eject optimal benefit from your brand-new blog site.

Bonus Week 5: Instantly Get Free Visitors “Tap Into The Vein Of Visitors Method” so you do not get stuck stressing over complex SEO or needing to spend for pricey advertisements.

Bonus Week 6: Case Study “How I Made One Million Dollars In 20 Months!” You can discover another simple method that I was able to juice up my earnings quickly.

Bonus Week 7: Automatically Increase Sales 2x to 5x “Push Button Autopilot Sales Method!” You can make the many of the traffic and visitors that are striking your blog site and you can genuinely make push button earnings.

Bonus Week 8: Get 10 x More Free Visitors “Merry Go Round Blast Off Method!” You can increase your blog site visitors quickly once again without having to stress about complex SEO or paying for advertisements … more traffic normally equates to more loan.

also You can find my other helpful Business-posts
(if old file-links don't show activity, try copy-paste them to the address bar)

MediaInfo: General
Complete name : 05. How To Find Expired Domains Watch Me Find An Awesome Car Domain That Expired and Can Be Bought For $8.MP4
Format : MPEG-4
Format profile : Base Media / Version 2
Codec ID : mp42 (isom/mp42)
File size : 78.6 MiB
Duration : 18 min 35 s
Overall bit rate mode : Variable
Overall bit rate : 591 kb/s
Season : 0
Movie name : 05. How To Find Expired Domains Watch Me Find An Awesome Car Domain That Expired and Can Be Bought For $8
Part : 0

AppleStoreCatalogID : 0

Video
ID : 1
Format : AVC
Format/Info : Advanced Video Codec
Format profile : Baseline@L3.1
Format settings : 3 Ref Frames
Format settings, CABAC : No
Format settings, RefFrames : 3 frames
Codec ID : avc1
Codec ID/Info : Advanced Video Coding
Duration : 18 min 35 s
Bit rate : 460 kb/s
Width : 1 280 pixels
Height : 720 pixels
Display aspect ratio : 16:9
Frame rate mode : Constant
Frame rate : 30.000 FPS
Standard : NTSC
Color space : YUV
Chroma subsampling : 4:2:0
Bit depth : 8 bits
Scan type : Progressive
Bits/(Pixel*Frame) : 0.017
Stream size : 61.1 MiB (78%)
Language : English
Encoded date : UTC 2017-07-13 15:48:51
Tagged date : UTC 2017-07-13 15:48:51
Color range : Limited
Menus : 3

Audio
ID : 2
Format : AAC
Format/Info : Advanced Audio Codec
Format profile : LC
Codec ID : mp4a-40-2
Duration : 18 min 35 s
Bit rate mode : Variable
Bit rate : 126 kb/s
Maximum bit rate : 129 kb/s
Channel(s) : 2 channels
Channel positions : Front: L R
Sampling rate : 44.1 kHz
Frame rate : 43.066 FPS (1024 SPF)
Compression mode : Lossy
Stream size : 16.7 MiB (21%)
Language : English
Encoded date : UTC 2017-07-13 15:48:51
Tagged date : UTC 2017-07-13 15:48:51

Menu
ID : 3
Codec ID : text
Duration : 18 min 35 s
Encoded date : UTC 2017-09-05 18:27:34
Tagged date : UTC 2017-09-05 18:27:34
Menu For : 1
00:00:00.000 : Chapter 1
Screenshots
× Anthony Aires - Blog And Prosper Close
× Anthony Aires - Blog And Prosper Close
× Anthony Aires - Blog And Prosper Close
× Anthony Aires - Blog And Prosper Close
✅ Exclusive eLearning Videos ParRus-blog ← add to bookmarks

Feel free to contact me PM
when links are dead or want any repost
× Anthony Aires - Blog And Prosper Close



Download File Size:2.39 GB


Anthony Aires - Blog And Prosper
€20
Customers who bought this program also bought:

Home| All Programs| Today added Progs| Download Status| Customers opinion| Helpdesk| Shopping cart      
Copyright 2006-2019 ©   LPStore   All Rights Reserved





9327 Fantasy & Sci-Fi eBooks Collection 9327 PDF Books eBook €60


Cambridge University History Collection PDF eBooks €100

                   





Autodesk Revit 2020 Multilingual (1 dvd) €140

             

Autodesk Product Design Suite Ultimate 2020 .sfx (x64) €250






FileMaker Pro 18 Advanced 18.0.2.209 Multilingual €60


Pinnacle Studio Ultimate 22 €25


CorelDRAW Graphics Suite 2019 Multilingual €60