Home| All Programs| Today added Progs| Download Status| Customers opinion| Helpdesk| Shopping cart

Program Search:

Shopping Cart:




*Note: Minimum order cost: €20
Maximum Total Price: €1500
We Recommend:

Wall Street Academy - Forex Training Course €25 buy download

× Wall Street Academy - Forex Training Course Close
Wall Street Academy - Forex Training CourseWEBRip | English | MP4 | 1080 x 720 | AVC ~2500 Kbps | 29.970 fps
AAC | 73.5 Kbps | 48.0 KHz | 2 channels | ~4 hours | 3.2 GBGenre: eLearning Video / Forex, Trading, Stock
Wall Street Academy is home of the most effective educational platform for learning how to trade in the Forex Market, also known as the currency market.Thank you for choosing Wall Street Academy, an FX mentorship from Founder of Forever In Profit, Quillan Black.

Everything you need

What you’re getting when you enroll onto WallStreet Academy is a full mentorship provided from Quillan Black (Cue), and full access to my main group Forever In Profit. Wall Street Academy focuses on one trading style material only from Quillan Black, when there’s Forever In Profit which has 3 trading styles. Forever In Profit is the combination of Quillan Black, Ryan Gilpin, and Rico Villarreal.

There are 1000s of ways to make money in the markets, so when it comes to trading, Forever In Profit gives you three different perspectives on how to become a profitable trader based off different trading styles.

Wall Street Academy contains a full online educational platform that gives you step by step phases that educates you on how to trade. There is no prior knowledge needed to enroll. Wall Street Academy goes over Psychology training, steps to set up the platform onto your device, technical analysis training phases, past recorded webinars, and downloadable files.

You’ll also have access to the Wall Street Academy Facebook and Forever In Profit group pages, periodic webinars, telegram chats, and any future implement of the groups.

Value: $1749
More Info: Salepage

(if old file-links don't show activity, try copy-paste them to the address bar)
You can find my other useful: Trading-posts

MediaInfo: General
Complete name : 4. Revenge Trading.mp4
Format : MPEG-4
Format profile : Base Media / Version 2
Codec ID : mp42 (mp42/mp41/isom/avc1)
File size : 70.9 MiB
Duration : 3 min 51 s
Overall bit rate mode : Variable
Overall bit rate : 2 572 kb/s
Encoded date : UTC 2016-01-03 00:44:06
Tagged date : UTC 2016-01-03 00:44:06

Video
ID : 1
Format : AVC
Format/Info : Advanced Video Codec
Format profile : High@L3.1
Format settings : CABAC / 5 Ref Frames
Format settings, CABAC : Yes
Format settings, RefFrames : 5 frames
Codec ID : avc1
Codec ID/Info : Advanced Video Coding
Duration : 3 min 51 s
Bit rate : 2 500 kb/s
Width : 1 080 pixels
Height : 720 pixels
Display aspect ratio : 3:2
Frame rate mode : Constant
Frame rate : 29.970 (30000/1001) FPS
Color space : YUV
Chroma subsampling : 4:2:0
Bit depth : 8 bits
Scan type : Progressive
Bits/(Pixel*Frame) : 0.107
Stream size : 68.8 MiB (97%)
Writing library : x264 core 148 r11 7599210
Encoding settings : cabac=1 / ref=5 / deblock=1:0:0 / analyse=0x3:0x113 / me=umh / subme=8 / psy=1 / psy_rd=1.00:0.00 / mixed_ref=1 / me_range=16 / chroma_me=1 / trellis=1 / 8x8dct=1 / cqm=0 / deadzone=21,11 / fast_pskip=1 / chroma_qp_offset=-2 / threads=22 / lookahead_threads=3 / sliced_threads=0 / nr=0 / decimate=1 / interlaced=0 / bluray_compat=0 / stitchable=1 / constrained_intra=0 / bframes=3 / b_pyramid=2 / b_adapt=2 / b_bias=0 / direct=3 / weightb=1 / open_gop=0 / weightp=2 / keyint=infinite / keyint_min=29 / scenecut=40 / intra_refresh=0 / rc_lookahead=50 / rc=2pass / mbtree=1 / bitrate=2500 / ratetol=1.0 / qcomp=0.60 / qpmin=5 / qpmax=69 / qpstep=4 / cplxblur=20.0 / qblur=0.5 / vbv_maxrate=2750 / vbv_bufsize=7500 / nal_hrd=none / filler=0 / ip_ratio=1.40 / aq=1:1.00
Encoded date : UTC 2016-01-03 00:44:06
Tagged date : UTC 2016-01-03 00:44:06
Color range : Limited
Color primaries : BT.709
Transfer characteristics : BT.709
Matrix coefficients : BT.709

Audio
ID : 2
Format : AAC
Format/Info : Advanced Audio Codec
Format profile : LC
Codec ID : mp4a-40-2
Duration : 3 min 51 s
Bit rate mode : Variable
Bit rate : 73.5 kb/s
Channel(s) : 2 channels
Channel(s)_Original : 1 channel
Channel positions : Front: C
Sampling rate : 48.0 kHz
Frame rate : 46.875 FPS (1024 SPF)
Compression mode : Lossy
Stream size : 2.03 MiB (3%)
Encoded date : UTC 2016-01-03 00:44:06
Tagged date : UTC 2016-01-03 00:44:06
Screenshots
× Wall Street Academy - Forex Training Course Close
× Wall Street Academy - Forex Training Course Close
× Wall Street Academy - Forex Training Course Close
× Wall Street Academy - Forex Training Course Close
✅ Exclusive eLearning Videos ParRus-blog ← add to bookmarks

Feel free to contact me PM
when links are dead or want any repost
× Wall Street Academy - Forex Training Course Close



Download File Size:3.12 GB


Wall Street Academy - Forex Training Course
€25
Customers who bought this program also bought:
  • Bulls on WallStreet 4 Day Trading Bootcamp €40
  • Forex Daily Trading System €18

  • Home| All Programs| Today added Progs| Download Status| Customers opinion| Helpdesk| Shopping cart      
    Copyright 2006-2019 ©   LPStore   All Rights Reserved





    Adobe Acrobat Pro DC 2019.012.20034 Multilingual €70


    MathWorks MATLAB R2019a (1 dvd) €100


    Adobe Acrobat Pro DC 2019.012.20034 Multilingual for Mac €70






    9327 Fantasy & Sci-Fi eBooks Collection 9327 PDF Books eBook €60


    Cambridge University History Collection PDF eBooks €100

                       





    Autodesk Revit 2020 Multilingual (1 dvd) €140

                 

    Autodesk Product Design Suite Ultimate 2020 .sfx (x64) €250